[PANS写真]2020-04-16 NO.1316 狐狸 收藏

[套图名称] : [PANS写真]2020-04-16 NO.1316 狐狸
[套图尺寸] : 3008x2008
[套图大小] : 28P+1V/269.9M
[下载方式] : 百度网盘
[下载地址] : 点此获取下载地址 (VIP会员免积分下载)
下载包内为原版高清套图和视频,绝不含第三方水印!
[在线观看] : 第1段
[套图预览] : [PANS写真]2020-04-16 NO.1316 狐狸 第1张
[视频名称] : PANS摄影-1316期 年会员 SP.avi
[视频尺寸] : 1280x720
[视频大小] : 1avi/143.5M
[视频时长] : 00:12:05
[视频编码] :
Stream #0:0: Video: h264 (High) (avc1 / 0x31637661), yuv420p(progressive), 1280x720 [SAR 1:1 DAR 16:9], 1519 kb/s, 24 fps, 24 tbr, 24 tbn, 48 tbc
Stream #0:1: Audio: mp3 (U[0][0][0] / 0x0055), 44100 Hz, stereo, fltp, 128 kb/s
[视频预览] : [PANS写真]2020-04-16 NO.1316 狐狸 第1张

有用 (0)

评论加载中...