[PANS写真]2019-06-15 NO.1159 狐狸 收藏

[套图名称] : [PANS写真]2019-06-15 NO.1159 狐狸
[套图尺寸] : 3008x2008
[套图大小] : 28+1P+1V/224.2M
[下载方式] : 百度网盘
[下载地址] : 点此获取下载地址 (售价:2积分)
下载包内为原版高清套图和视频,绝不含第三方水印!
[在线观看] : 第1段
[套图预览] : [PANS写真]2019-06-15 NO.1159 狐狸 封面
[视频名称] : PANS摄影-1159期 年会员 SP.avi
[视频尺寸] : 1280x720
[视频大小] : 1avi/122.0M
[视频时长] : 00:07:53
[视频编码] :
Stream #0:0: Video: mpeg4 (Advanced Simple Profile) (XVID / 0x44495658), yuv420p, 1280x720 [SAR 1:1 DAR 16:9], 2018 kb/s, 30 fps, 30 tbr, 30 tbn, 30 tbc
Stream #0:1: Audio: mp3 (U[0][0][0] / 0x0055), 44100 Hz, stereo, fltp, 128 kb/s
[视频预览] : [PANS写真]2019-06-15 NO.1159 狐狸 第1张

有用 (5)

评论加载中...