[PANS写真]2014-03-21 NO.217 紫萱 收藏

[套图名称] : [PANS写真]2014-03-21 NO.217 紫萱
[套图尺寸] : 3008x2008
[套图大小] : 43+1P+1V/370.9M
[下载方式] : 百度网盘
[下载地址] : 点此获取下载地址 (售价:2积分)
下载包内为原版高清套图和视频,绝不含第三方水印!
[在线观看] : 第1段
[套图预览] : [PANS写真]2014-03-21 NO.217 紫萱 封面
[视频名称] : pansidon-217期 年会员视频.avi
[视频尺寸] : 1280x720
[视频大小] : 1avi/220.8M
[视频时长] : 00:14:16
[视频编码] :
Stream #0:0: Video: mpeg4 (Simple Profile) (DX50 / 0x30355844), yuv420p, 1280x720 [SAR 1:1 DAR 16:9], 2022 kb/s, 30 fps, 30 tbr, 30 tbn, 30 tbc
Stream #0:1: Audio: mp3 (U[0][0][0] / 0x0055), 44100 Hz, stereo, fltp, 128 kb/s
[视频预览] : [PANS写真]2014-03-21 NO.217 紫萱 第1张

有用 (0)

评论加载中...