[ROSI写真]RS. 视频NO.345 收藏

[视频名称] : 345.mov
[视频尺寸] : 1920x1080
[视频大小] : 1mov/219.1M
[视频时长] : 00:03:53
[视频编码] :
Stream #0:0(und): Video: h264 (High) (avc1 / 0x31637661), yuv420p(tv, bt709), 1920x1080, 7694 kb/s, 25 fps, 25 tbr, 12800 tbn, 50 tbc (default)
Stream #0:1(und): Audio: aac (LC) (mp4a / 0x6134706D), 44100 Hz, stereo, fltp, 160 kb/s (default)
[下载方式] : 百度网盘
[下载地址] : 点此获取下载地址 (售价:6积分)
下载包内为原版高清视频,绝不含第三方水印!
[在线观看] : 第1段
[视频预览] : [ROSI写真]RS. 视频NO.345

有用 (8)

评论加载中...