[如壹写真RU1MM]2013-12-23 视频NO.078 收藏

[视频名称] : HD078.mp4
[视频尺寸] : 1920x1080
[视频大小] : 1mp4/76.3M
[视频时长] : 00:04:00
[视频编码] :
Stream #0:0(und): Video: h264 (Main) (avc1 / 0x31637661), yuv420p, 1920x1080 [SAR 1:1 DAR 16:9], 2471 kb/s, 30 fps, 30 tbr, 30k tbn, 60 tbc (default)
Stream #0:1(und): Audio: aac (LC) (mp4a / 0x6134706D), 44100 Hz, stereo, fltp, 189 kb/s (default)
[下载方式] : 百度网盘
[下载地址] : 点此获取下载地址 (售价:6积分)
下载包内为原版高清视频,绝不含第三方水印!
[视频预览] : [如壹写真RU1MM]2013-12-23 视频NO.078

有用 (0)

评论加载中...